返回APE音乐下载

草原-《醉美大草原2CD》[WAV音乐下载]正版音乐原抓

分享者:网友投稿 发布时间:2010-10-06 喜欢: 热度:
音乐介绍

WAV音乐下载,大草原

WAV音乐下载来自辽阔大草原上广为流传的绝美天籁之歌,纯粹发烧的精致选曲,深情豪迈的自由旋律,悠远厚重的民族情怀,生动鲜活的音乐内涵,赋予专辑尤为浓郁的民族艺术魅力;
其细腻凸浮的发烧音色,无比卓越的音乐品质,自然喷涌着意蕴独到的草原气息,聆听醉美大草原旋律再创天籁民歌的发烧传奇,一辑值得一听再听的魅力草原流行热碟!


极致发烧的民族靓嗓
绿色草原的天籁之歌
令人无限陶醉的悠扬旋律
直袭心驰神往的醉美发烧境界
醉美大草原 2CD 24K德国HD金碟
顶级发烧器材专业监听精品CD
现今高端压片科技下音效最HIFI的产物

解压密码:
风语原抓20101001



专辑介绍
名称:醉美大草原
艺人:群星
发行:广州君乐文化传播有限公司
出版:珠影白天鹅音像出版社
ISRC:CN-F23-10-325-00/A.J6
日期:2010年3月
类型:WAV整轨+CUE



DISC A

01 为你等待
02 天边的西藏
03 梦中的绿洲
04 大高原
05 天堂草原
06 唱首情歌给草原
07 姑娘我爱你
08 天上西藏
09 草原之月
10 高原蓝
11 我要去西藏
12 套马杆
13 草原绿了
14 雪山阿妈
15 我和草原有个约定

DISC B

01 我从雪山来
02 走天涯
03 西海情歌
04 情人吉祥
05 姑娘动了我的心
06 火凤凰
07 陪你一起看草原
08 万物生
09 格桑花开
10 天蓝蓝
11 火苗
12 草原夜色美
13 我从草原来
14 天堂里的阿妈
15 遇上你是我的缘

----------------------------------------------------
Exact Audio Copy V0.99 prebeta 5 from 4. May 2009
EAC 抓取日志文件从24. 九月 2010, 22:53
风语 / 【草原发烧传奇】醉美大草原2CD
使用驱动器  :SAMSUNG DVD-ROM SD-616T   Adapter: 3  ID: 0
读取模式     : 保护
使用精确流   : 是
废除音频缓冲 : 否
使用 C2 指针 : 否
组合读/写偏移校正              : 0
读取 Lead-In 和 Lead-Out       : 否
用静音填充抓取中丢失偏移的采样 : 是
去除首尾静音块                 : 否
在 CRC 计算中使用了空样本      : 是
已用接口                       : 已安装外部 ASPI 接口
所用输出格式 : 内部 WAV 函数
样本格式     : 44.100 Hz;16 Bit;立体声

被抓轨 CD 的 TOC
     音轨 |   开始   |   长度   | 起始扇区 | 结尾扇区
    --------------------------------------------------
       1  |  0:00.00 |  5:02.57 |       0  |   22706  
       2  |  5:02.57 |  4:38.44 |   22707  |   43600  
       3  |  9:41.26 |  4:43.66 |   43601  |   64891  
       4  | 14:25.17 |  3:57.40 |   64892  |   82706  
       5  | 18:22.57 |  4:20.73 |   82707  |  102279  
       6  | 22:43.55 |  4:53.06 |  102280  |  124260  
       7  | 27:36.61 |  4:24.50 |  124261  |  144110  
       8  | 32:01.36 |  4:41.73 |  144111  |  165258  
       9  | 36:43.34 |  3:39.52 |  165259  |  181735  
      10  | 40:23.11 |  5:06.14 |  181736  |  204699  
      11  | 45:29.25 |  4:51.43 |  204700  |  226567  
      12  | 50:20.68 |  4:41.21 |  226568  |  247663  
      13  | 55:02.14 |  4:30.72 |  247664  |  267985  
      14  | 59:33.11 |  5:01.25 |  267986  |  290585  
      15  | 64:34.36 |  4:03.07 |  290586  |  308817  

范围状态及错误
已选择范围
     文件名 D:\My Documents\【草原发烧传奇】醉美大草原2CD[WAV+CUE]\醉美大草原 CDA.wav
     峰值电平 98.8 %
     范围质量 99.9 %
     复制 CRC F8D31107
     复制成功
没有错误发生
状态报告结尾
下载地址
   
                          ※WWW.23APE.ORG※从此爱上APE※爱上无损音乐※·地址列表
其他说明

☉本站不储存音乐,只提供链接,所有资源来源于网络,由网友们分享交流。
☉本站所有广告训练有素,排列整齐,绝不弹窗!!!多谢理解,多谢支持!
☉假如你喜欢这个音乐,请购买正版。若有任何版权争议,请及时联系本站。


顶一下
(116)
95.9%
踩一下
(5)
4.1%
------分隔线----------------------------
→赞助商
→人气排行