返回APE音乐下载

薛之谦-《未完成的歌》[APE音乐下载]

分享者:网友投稿 发布时间:2010-10-07 喜欢: 热度:
音乐介绍

薛之谦-《未完成的歌》[APE音乐下载]

专辑介绍:

创作小天王薛之谦 即将于秋末发行自己的第一张个人新歌加精选专辑,首播个人创作主打歌《未完成的歌 》CD版。《未完成的歌 》是薛之谦逾一年的创作,甚至创作早于上张专辑的同名主打歌《深深爱过你》,而为何迟迟没有发表,薛之谦表示:“一直没有很好的词来配合这首曲,所以我一直在等,终于等到让我觉得感动的歌词。

专辑中文名: 未完成的歌
歌手: 薛之谦.音乐风格: 流行
资源格式: APE音乐下载
发行时间: 2009年12月11日
地区: 大陆
语言: 普通话

简介:

ape音乐下载,薛之谦 



专辑曲目:

1. 未完成的歌
2. 我的雅典娜
3. 传说
4. 马戏小丑
5. 你过得好吗
6. 红尘女子
7. Memory
8. 倾城
9. 我们的世界
10. 给我的爱人
11. 爱的期限
12. 黄色枫叶
13. 认真的雪
14. 爱我的人 谢谢你

Exact Audio Copy V0.99 prebeta 5 from 4. May 2009

EAC 抓取日志文件从28. 八月 2010, 22:10

未知艺术家 / 未知标题

使用驱动器  :TEAC    CDRWDVD DW224SLR   Adapter: 2  ID: 0

读取模式     : 保护
使用精确流   : 是
废除音频缓冲 : 是
使用 C2 指针 : 否

读取偏移校正                   : 102
读取 Lead-In 和 Lead-Out       : 否
用静音填充抓取中丢失偏移的采样 : 是
去除首尾静音块                 : 否
在 CRC 计算中使用了空样本      : 是
已用接口                       : Win NT 及 2000 本地 Win32 接口

所用输出格式   : Monkey's Audio 无损编码器
已选比特率     : Normal Lossless Compression
质量           : 高
添加 ID3 标签  : 是
命令行压缩器   : D:\foobar2000\MAC.exe


被抓轨 CD 的 TOC

     音轨 |   开始   |   长度   | 起始扇区 | 结尾扇区
    --------------------------------------------------
       1  |  0:00.00 |  4:20.28 |       0  |   19527  
       2  |  4:20.28 |  3:42.69 |   19528  |   36246  
       3  |  8:03.22 |  4:32.66 |   36247  |   56712  
       4  | 12:36.13 |  5:03.05 |   56713  |   79442  
       5  | 17:39.18 |  4:25.19 |   79443  |   99336  
       6  | 22:04.37 |  4:40.24 |   99337  |  120360  
       7  | 26:44.61 |  5:03.53 |  120361  |  143138  
       8  | 31:48.39 |  3:54.12 |  143139  |  160700  
       9  | 35:42.51 |  4:17.60 |  160701  |  180035  
      10  | 40:00.36 |  4:48.35 |  180036  |  201670  
      11  | 44:48.71 |  4:28.27 |  201671  |  221797  
      12  | 49:17.23 |  4:14.23 |  221798  |  240870  
      13  | 53:31.46 |  4:21.26 |  240871  |  260471  
      14  | 57:52.72 |  3:55.35 |  260472  |  278131  


范围状态及错误

已选择范围

     文件名 C:\Users\SHOW\Desktop\薛之谦 - 未完成的歌.wav

     峰值电平 100.0 %
     范围质量 100.0 %
     复制 CRC 1F1092AD
     复制成功

没有错误发生


没有任何音轨出现在 AccurateRip 数据库中

状态报告结尾


试听:


下载地址
   
                          ※WWW.23APE.ORG※从此爱上APE※爱上无损音乐※·地址列表
其他说明

☉本站不储存音乐,只提供链接,所有资源来源于网络,由网友们分享交流。
☉本站所有广告训练有素,排列整齐,绝不弹窗!!!多谢理解,多谢支持!
☉假如你喜欢这个音乐,请购买正版。若有任何版权争议,请及时联系本站。


顶一下
(87)
98.9%
踩一下
(1)
1.1%
------分隔线----------------------------
→赞助商
→人气排行